<?xml version="1.0" standalone="no"?>
<!DOCTYPE svg PUBLIC "-//W3C//DTD SVG 1.1//EN" "http://www.w3.org/Graphics/SVG/1.1/DTD/svg11.dtd" >
<svg xmlns="http://www.w3.org/2000/svg" xmlns:xlink="http://www.w3.org/1999/xlink" version="1.1">
<metadata>
Created by FontForge 20170924 at Fri Jul 29 19:11:33 2005
 By www-data
Ryoichi Tsunekawa Bagel&#38;Co All rights reserved
</metadata>
<defs>
<font id="Bebas" horiz-adv-x="729" >
  <font-face 
    font-family="Bebas"
    font-weight="400"
    font-stretch="normal"
    units-per-em="1408"
    panose-1="0 0 0 0 0 0 0 0 0 0"
    ascent="1126"
    descent="-282"
    x-height="1253"
    cap-height="1253"
    bbox="64.9971 -210 1343 1652"
    underline-thickness="50"
    underline-position="-150"
    unicode-range="U+0020-007F"
  />
<missing-glyph horiz-adv-x="704" 
d="M88 0v1652h528v-1652h-528zM176 88h352v1476h-352v-1476z" />
    <glyph glyph-name=".notdef" horiz-adv-x="704" 
d="M88 0v1652h528v-1652h-528zM176 88h352v1476h-352v-1476z" />
    <glyph glyph-name="space" unicode=" " horiz-adv-x="130" 
 />
    <glyph glyph-name="exclam" unicode="!" horiz-adv-x="319" 
d="M65 553v701h189v-701l-14 -242h-161zM65 0v189h189v-189h-189z" />
    <glyph glyph-name="quotedbl" unicode="&#x22;" horiz-adv-x="529" 
d="M94 1166l-29 286h175l-29 -286h-117zM318 1166l-29 286h175l-29 -286h-117z" />
    <glyph glyph-name="numbersign" unicode="#" horiz-adv-x="1154" 
d="M863 725l-40 -238h195l-29 -190h-197l-49 -297h-189l49 297h-163l-49 -297h-189l49 297h-186l29 190h188l40 238h-186l29 190h188l56 340h189l-56 -340h163l56 340h189l-56 -340h195l-29 -190h-197zM673 725h-162l-39 -238h162z" />
    <glyph glyph-name="dollar" unicode="$" horiz-adv-x="756" 
d="M690 321c2.66699 -108 -27.668 -191.997 -91.001 -251.997c-38 -35.333 -85 -58 -141 -68v-88h-160v92c-75.333 19.333 -133.333 64 -174 134c-34.667 60 -54.334 130 -59.001 210l181 13c8 -74 27 -126.667 57 -158c22.667 -24.667 48.667 -36.334 78 -35.001
c41.333 1.33301 74.333 21.666 99 60.999c12.667 19.333 19 47 19 83c0 51.333 -23.333 103 -70 155c-38 35.333 -94.333 88.333 -169 159c-58 55.333 -100 106 -126 152c-32.667 57.333 -49 119.666 -49 186.999c0 64.667 15.333 123.667 46 177c37.333 66 93 108 167 126
v81h160v-81c50.667 -11.333 92.667 -32.666 126 -63.999c58.667 -54.667 91.334 -126.334 98.001 -215.001l-182 -33c-5.33301 50.667 -20 91 -44 121c-16 20 -40.667 30 -74 30c-34.667 0 -61 -15.333 -79 -46c-14.667 -24.667 -22 -55.334 -22 -92.001
c0 -57.333 24.667 -116 74 -176c18 -21.333 45.667 -47.666 83 -78.999c44 -36 73.333 -61.667 88 -77c46.667 -48 82.334 -94 107.001 -138c36.667 -65.333 55.667 -125 57 -179z" />
    <glyph glyph-name="percent" unicode="%" horiz-adv-x="1000" 
d="M379 793c0 -42.667 -15.5 -79.334 -46.5 -110.001s-67.833 -46 -110.5 -46c-43.333 0 -80.333 15.333 -111 46s-46 67.334 -46 110.001v358c0 43.333 15.333 80.333 46 111s67.667 46 111 46s80.333 -15.5 111 -46.5s46 -67.833 46 -110.5v-358zM162 795
c0 -16 5.5 -29.5 16.5 -40.5s24.5 -16.5 40.5 -16.5s29.5 5.5 40.5 16.5s16.5 24.5 16.5 40.5v358c0 16 -5.5 29.5 -16.5 40.5s-24.5 16.5 -40.5 16.5s-29.5 -5.5 -40.5 -16.5s-16.5 -24.5 -16.5 -40.5v-358zM779 664c43.333 0 80.168 -15.5 110.501 -46.5
s45.5 -67.833 45.5 -110.5v-358c0 -43.333 -15.333 -80 -46 -110s-67.334 -45 -110.001 -45c-43.333 0 -80.333 15.167 -111 45.5s-46 66.833 -46 109.5v358c0 43.333 15.333 80.333 46 111s67.667 46 111 46zM833.002 509c0 16 -5.5 29.5 -16.5 40.5s-24.5 16.5 -40.5 16.5
s-29.5 -5.5 -40.5 -16.5s-16.5 -24.5 -16.5 -40.5v-358c0 -16 5.5 -29.5 16.5 -40.5s24.5 -16.5 40.5 -16.5s29.5 5.5 40.5 16.5s16.5 24.5 16.5 40.5v358zM236.002 -21h-111l640 1326h110z" />
    <glyph glyph-name="ampersand" unicode="&#x26;" horiz-adv-x="872" 
d="M802 590c-30 -133.333 -70.6699 -245.998 -122.003 -337.998c48.667 -44.667 91 -67 127 -67v-175c-73.333 0 -149 33.333 -227 100c-74.667 -78.667 -154.667 -118 -240 -118c-98.667 0 -174 40.667 -226 122c-32.667 51.333 -49 110 -49 176
c0 64.667 15.667 132 47 202c5.33301 11.333 23 42 53 92c16.667 26.667 33.334 52.334 50.001 77.001l-39 89c-18.667 41.333 -31.334 70.666 -38.001 87.999c-13.333 34 -22.666 64.667 -27.999 92c-6 30 -9 59.333 -9 88c0 56 12.333 107.333 37 154
c25.333 49.333 62 86.333 110 111c38 20.667 80 31 126 31c51.333 0 98.333 -12.833 141 -38.5s75.334 -61.167 98.001 -106.5c18 -36.667 27 -76.334 27 -119.001c0 -75.333 -26.333 -147 -79 -215l-41 -53c-37.333 -48.667 -71.666 -94.334 -102.999 -137.001
c42 -87.333 89.333 -169 142 -245c31.333 71.333 55.333 147.333 72 228zM274.997 1019c0 -37.333 19.334 -102 58.001 -194l24 30l25 33l40 53c29.333 38.667 44 74.667 44 108c0 24.667 -3.33301 43.667 -10 57c-16.667 42 -44 63 -82 63
c-32.667 0 -58.334 -17.667 -77.001 -53c-14.667 -28 -22 -60.333 -22 -97zM339.998 166.002c38 0 78.333 24 121 72c-51.333 66 -103 146.667 -155 242c-12 -20 -24 -40.667 -36 -62c-20 -46 -30 -88.667 -30 -128c0 -34.667 7.66699 -63 23 -85c18 -26 43.667 -39 77 -39z
" />
    <glyph glyph-name="quotesingle" unicode="'" horiz-adv-x="305" 
d="M65 1452h175l-29 -286h-117z" />
    <glyph glyph-name="parenleft" unicode="(" horiz-adv-x="505" 
d="M437 1370c-36 -74.667 -68.001 -150.999 -96.001 -228.999c-44 -123.333 -73 -236 -87 -338c-5.33301 -40 -8 -78.667 -8 -116c0 -122 32.333 -279 97 -471c28.667 -84 61 -166 97 -246l-122 -62c-47.333 77.333 -89.666 159.666 -126.999 246.999
c-84 195.333 -126 372.666 -126 531.999c0 126 26.333 259.667 79 401c13.333 35.333 29 72.333 47 111c38 82.667 80.333 158.334 127 227.001z" />
    <glyph glyph-name="parenright" unicode=")" horiz-adv-x="504" 
d="M187 1425c46 -68.667 88 -144.333 126 -227c84 -182.667 126 -353.334 126 -512.001c0 -159.333 -42 -336.666 -126 -531.999c-37.333 -87.333 -79.333 -169.333 -126 -246l-122 62c36.667 81.333 69 163 97 245c44 128.667 73.667 246.667 89 354
c5.33301 40.667 8 79.667 8 117c0 124.667 -32 276 -96 454c-28 78 -59.667 154.333 -95 229z" />
    <glyph glyph-name="asterisk" unicode="*" horiz-adv-x="626" 
d="M561 1016l-153 -27l104 -108l-130 -96l-72 137l-73 -137l-132 96l111 110l-151 25l52 151l137 -67l-22 155h159l-22 -157l143 69z" />
    <glyph glyph-name="plus" unicode="+" horiz-adv-x="774" 
d="M457 683h252v-140h-252v-252h-140v252h-252v140h252v252h140v-252z" />
    <glyph glyph-name="comma" unicode="," horiz-adv-x="320" 
d="M65 0v188h190v-188l-69 -144h-80l45 144h-86z" />
    <glyph glyph-name="hyphen" unicode="-" horiz-adv-x="690" 
d="M65 721h560v-190h-560v190z" />
    <glyph glyph-name="hyphen" unicode="&#x2010;" horiz-adv-x="690" 
d="M65 721h560v-190h-560v190z" />
    <glyph glyph-name="period" unicode="." horiz-adv-x="319" 
d="M65 188h189v-189h-189v189z" />
    <glyph glyph-name="slash" unicode="/" horiz-adv-x="807" 
d="M588 1333h154l-523 -1371h-154z" />
    <glyph glyph-name="zero" unicode="0" 
d="M664 286c0 -83.333 -29.335 -153.998 -88.002 -211.998s-129 -87 -211 -87c-83.333 0 -154.166 29.167 -212.499 87.5s-87.5 128.833 -87.5 211.5v684c0 83.333 29.333 154.166 88 212.499s129.334 87.5 212.001 87.5c83.333 0 154 -29.333 212 -88
s87 -129.334 87 -212.001v-684zM467.998 974.002c0 30 -10.667 55.667 -32 77s-47 32 -77 32s-55.5 -10.667 -76.5 -32s-31.5 -47 -31.5 -77v-685c0 -30 10.5 -55.667 31.5 -77s46.5 -32 76.5 -32s55.667 10.667 77 32s32 47 32 77v685z" />
    <glyph glyph-name="one" unicode="1" horiz-adv-x="480" 
d="M225 0v965h-160v132c45.333 5.33301 88.5 22.5 129.5 51.5s70.5 64.167 88.5 105.5h132v-1254h-190z" />
    <glyph glyph-name="two" unicode="2" horiz-adv-x="746" 
d="M68 900c0 118.667 32.001 209.332 96.001 271.999c55.333 55.333 128 83 218 83c82.667 0 153.167 -31 211.5 -93s87.5 -134.333 87.5 -217c0 -85.333 -19 -167.666 -57 -246.999c-20.667 -44 -69 -119.667 -145 -227c-20.667 -29.333 -51.334 -75 -92.001 -137l-34 -51
c-22 -33.333 -38.667 -59.666 -50 -78.999c-5.33301 -9.33301 -8 -15 -8 -17l371 -1v-185h-601v173c0 4 14 27 42 69c12.667 19.333 27 40.666 43 63.999l49 71c28.667 39.333 73.667 102.333 135 189c58 81.333 101.333 155 130 221c23.333 54 35 104.333 35 151
c0 38 -10.667 70.333 -32 97c-23.333 28 -53.333 42 -90 42c-52.667 0 -90 -30.333 -112 -91c-7.33301 -20 -11 -44 -11 -72v-48h-186v33z" />
    <glyph glyph-name="three" unicode="3" horiz-adv-x="743" 
d="M359 180c86.667 0 129.999 40.333 129.999 121v74c0 128.667 -67.333 193 -202 193v162c72.667 0 126.334 20.333 161.001 61c32 36.667 48 88 48 154v29c0 82 -36 123 -108 123c-40 0 -69.333 -15.333 -88 -46c-14 -23.333 -21 -53.666 -21 -90.999v-33h-185v29
c0 89.333 22.667 162 68 218c51.333 64 123.666 96 216.999 96c88.667 0 159.667 -30 213 -90c48 -54 72 -121.333 72 -202v-53c0 -78 -23.333 -145.333 -70 -202c-20 -24 -43.333 -44.333 -70 -61c56 -31.333 99.333 -79 130 -143c16 -32.667 24 -72.334 24 -119.001v-99
c0 -92.667 -31.667 -168.667 -95 -228c-60.667 -57.333 -133.667 -86 -219 -86c-83.333 0 -154 29.333 -212 88s-87 129 -87 211v31l180 14l4 -44c2.66699 -31.333 13.834 -57 33.501 -77s45.167 -30 76.5 -30z" />
    <glyph glyph-name="four" unicode="4" horiz-adv-x="774" 
d="M65 461l334 794h189v-794h121v-190h-121v-270h-189v270h-334v190zM399 461v391l-156 -391h156z" />
    <glyph glyph-name="five" unicode="5" horiz-adv-x="715" 
d="M274 1065l0.00195312 -269.001c18.667 26.667 45 47.334 79 62.001c18 7.33301 39 11 63 11c82.667 0 143.667 -29 183 -87c34 -50 51 -120.667 51 -212v-270c0 -92.667 -29.333 -168.667 -88 -228c-56 -57.333 -126.667 -86 -212 -86c-82.667 0 -151.334 30 -206.001 90
c-52.667 57.333 -79 127.333 -79 210v30l181 14l4 -43c4.66699 -50 25 -83.333 61 -100c10.667 -5.33301 22 -8 34 -8c77.333 0 116 40.333 116 121v307c0 36.667 -13.333 67 -40 91c-12.667 11.333 -30.334 17 -53.001 17c-33.333 0 -58 -13 -74 -39
c-13.333 -22.667 -20 -46.667 -20 -72v-34h-190v685h553v-190h-363z" />
    <glyph glyph-name="six" unicode="6" horiz-adv-x="700" 
d="M438 943l-0.000976562 31.001c0 30.667 -8.16699 56.5 -24.5 77.5s-39.5 31.5 -69.5 31.5s-53.167 -10.5 -69.5 -31.5s-24.5 -46.833 -24.5 -77.5v-250c43.333 38.667 91 58 143 58c83.333 0 145.666 -29 186.999 -87c36.667 -50.667 55 -121 55 -211v-215h-1
c-4 -80 -32.833 -147 -86.5 -201s-119.5 -81 -197.5 -81c-83.333 0 -152 29.667 -206 89c-52.667 57.333 -79 127.333 -79 210v684c0 61.333 14.833 116.666 44.5 165.999s71.834 86 126.501 110c34.667 16 72.667 24 114 24c82.667 0 151.334 -30 206.001 -90
c52.667 -57.333 79 -127.333 79 -210v-27h-197zM250.999 289.001c0 -30.667 7.66895 -56 23.002 -76c16.667 -22 40 -33 70 -33s53.333 11 70 33c16 20 24 45.333 24 76v232c0 36 -13.333 66 -40 90c-12.667 11.333 -30.334 17 -53.001 17
c-32.667 0 -57.334 -13 -74.001 -39c-13.333 -21.333 -20 -45 -20 -71v-229z" />
    <glyph glyph-name="seven" unicode="7" horiz-adv-x="698" 
d="M633 1255v-190l-265 -1064h-185l265 1064h-383v190h568z" />
    <glyph glyph-name="eight" unicode="8" horiz-adv-x="744" 
d="M679 286c0 -83.333 -29.332 -153.997 -87.999 -211.997s-129.334 -87 -212.001 -87h-15c-83.333 0 -154 29.333 -212 88s-87 129 -87 211v114c0 76.667 25.667 143.667 77 201c22 24.667 47.667 45 77 61c-50.667 26 -90 69.333 -118 130
c-14 31.333 -21 70.666 -21 117.999v68c0 81.333 24 148.666 72 201.999c53.333 60 124 90 212 90h15c88.667 0 159.667 -30 213 -90c48 -54 72 -121.333 72 -202v-68c0 -78 -23.333 -142.667 -70 -194c-20.667 -22.667 -43.667 -40.667 -69 -54
c56 -31.333 99.333 -79 130 -143c16 -32.667 24 -72.334 24 -119.001v-114zM490.001 375.003c0 74.667 -17 124.665 -51 149.998c-16 12 -38.333 18 -67 18c-50 0 -84 -21.333 -102 -64c-10.667 -26 -16 -60.667 -16 -104v-60c0 -41.333 12.667 -74.666 38 -99.999
c21.333 -21.333 48 -32.666 80 -33.999c51.333 2.66699 87 28 107 76c7.33301 16 11 35.333 11 58v60zM496.001 927.001c-1.33301 86 -28.3311 140 -80.998 162c-12 5.33301 -26.333 8 -43 8c-32.667 0 -59.334 -9 -80.001 -27c-16.667 -14.667 -28.5 -33.5 -35.5 -56.5
s-9.83301 -51.833 -8.5 -86.5c2 -54.667 10.667 -94 26 -118c20 -32 52.667 -48 98 -48s78.333 17 99 51c17.333 28.667 25.666 67 24.999 115z" />
    <glyph glyph-name="nine" unicode="9" horiz-adv-x="700" 
d="M350 1270c82.667 0 151.332 -30.001 205.999 -90.001c52.667 -57.333 79 -127.333 79 -210v-684c0 -83.333 -27.167 -154 -81.5 -212s-122.166 -87 -203.499 -87c-83.333 0 -152 29.667 -206 89c-52.667 57.333 -79 127.333 -79 210v27h196v-31
c0 -30.667 8.16699 -56.334 24.5 -77.001s39.5 -31 69.5 -31s53.167 10.333 69.5 31s24.5 46.334 24.5 77.001v251c-44 -39.333 -91.667 -59 -143 -59c-82.667 0 -144.667 29 -186 87c-36.667 50.667 -55 121.334 -55 212.001v215h1c2.66699 58 19.167 110.167 49.5 156.5
s71.5 80.833 123.5 103.5c34 14.667 71 22 111 22zM448.998 967.999c0 30.667 -8.16699 56.5 -24.5 77.5s-39.5 31.5 -69.5 31.5s-53.167 -10.5 -69.5 -31.5s-24.5 -46.833 -24.5 -77.5v-232c0 -36.667 13.333 -67 40 -91c12 -11.333 29.667 -17 53 -17
c48 0 78 25.333 90 76c3.33301 15.333 5 27 5 35v229z" />
    <glyph glyph-name="colon" unicode=":" horiz-adv-x="320" 
d="M65 188h190v-188h-190v188zM65 720h190v-189h-190v189z" />
    <glyph glyph-name="semicolon" unicode=";" horiz-adv-x="319" 
d="M65 188h189v-189l-68 -144h-80l44 144h-85v189zM65 720h189v-189h-189v189z" />
    <glyph glyph-name="less" unicode="&#x3c;" horiz-adv-x="757" 
d="M692 954v-159l-431 -178l431 -181v-158l-627 271v137z" />
    <glyph glyph-name="equal" unicode="=" horiz-adv-x="774" 
d="M65 711v140h644v-140h-644zM65 437v140h644v-140h-644z" />
    <glyph glyph-name="greater" unicode="&#x3e;" horiz-adv-x="757" 
d="M65 954l627 -271v-137l-627 -268v158l431 179l-431 180v159z" />
    <glyph glyph-name="question" unicode="?" horiz-adv-x="727" 
d="M370 1270c101.333 0 178 -36.335 230 -109.002c41.333 -57.333 62 -124.666 62 -201.999c0 -129.333 -58.333 -252.333 -175 -369c-40.667 -40.667 -62.334 -88 -65.001 -142c-1.33301 -18 -2 -38 -2 -60v-75h-190v75c0 118 29 205.667 87 263
c62.667 62 105.667 125.667 129 191c13.333 38 20 78 20 120c0 43.333 -9.66699 77.333 -29 102c-21.333 28.667 -52.333 40.334 -93 35.001c-38 -4.66699 -65.333 -31 -82 -79c-7.33301 -20 -12.333 -43.333 -15 -70l-182 32c6.66699 78 32.667 143.667 78 197
c30.667 36 73.334 62 128.001 78c28.667 8.66699 61.667 13 99 13zM230 180.998h190v-190h-190v190z" />
    <glyph glyph-name="at" unicode="@" horiz-adv-x="1408" 
d="M1137 192l206 0.00195312l-19 -24c-70 -88 -158.333 -157 -265 -207c-104 -48 -213.333 -72 -328 -72c-189.333 0 -347.666 63.667 -474.999 191s-191 295.666 -191 504.999c0 208 59.333 383.333 178 526s283.667 214 495 214c127.333 0 230.666 -24.333 309.999 -73
c187.333 -114.667 281 -290.667 281 -528c0 -134 -37.333 -256 -112 -366c-84.667 -124 -191.334 -186 -320.001 -186c-68 0 -112.667 27.667 -134 83c-31.333 -28.667 -59 -49 -83 -61c-29.333 -14.667 -63.666 -22 -102.999 -22c-94 0 -166.333 38 -217 114
c-44 65.333 -66 147.666 -66 246.999c0 124.667 29.333 240 88 346c70 126.667 162.667 190 278 190c72.667 0 132.667 -31 180 -93l10 67h189l-109 -689c0 -11.333 5 -17 15 -17c38.667 0 78 21 118 63c30 32 55.333 70 76 114c27.333 58.667 41 128.667 41 210
c0 134 -39.833 242.5 -119.5 325.5s-186.167 124.5 -319.5 124.5c-153.333 0 -279.5 -52.5 -378.5 -157.5s-148.5 -246.167 -148.5 -423.5c0 -162 45 -293.667 135 -395c94 -106 221 -159 381 -159c146.667 0 281 49.667 403 149zM752 520.002
c22.667 85.333 34 166.333 34 243c0 39.333 -7 72.333 -21 99c-17.333 34 -44 51 -80 51c-68 0 -119.667 -57.333 -155 -172c-25.333 -81.333 -38 -166 -38 -254c0 -41.333 7.33301 -77.333 22 -108c19.333 -40 47.333 -60 84 -60c44 0 79.667 23.667 107 71
c15.333 26.667 31 70 47 130z" />
    <glyph glyph-name="A" unicode="A" horiz-adv-x="813" 
d="M308 288l-46 -288h-197l213 1253h260l210 -1253h-198l-45 288h-197zM407 966l-70 -494h140z" />
    <glyph glyph-name="B" unicode="B" horiz-adv-x="767" 
d="M65 0l0.000976562 1254h283c74.667 0 142 -19.667 202 -59c51.333 -33.333 88 -85 110 -155c12 -37.333 18 -81.666 18 -132.999c0 -84 -22.333 -151.333 -67 -202c-18.667 -21.333 -40.667 -37.666 -66 -48.999c42 -16 77.667 -47.667 107 -95
c19.333 -32 33.666 -73.333 42.999 -124c4.66699 -26 7 -55 7 -87c0 -79.333 -15 -146.666 -45 -201.999c-23.333 -43.333 -56.333 -78 -99 -104c-48 -29.333 -95.667 -44 -143 -44h-350zM269.001 186.997h79c64 0 108.333 33 133 99c8.66699 22.667 13 48.667 13 78
c0 70 -13.333 121 -40 153c-24 29.333 -59.333 44 -106 44h-79v-374zM269.001 741.997l78.999 0.000976562c58.667 0 98 28.667 118 86c7.33301 21.333 11 47.666 11 78.999c0 52 -12.667 91.333 -38 118c-23.333 24.667 -53.666 37 -90.999 37h-79v-320z" />
    <glyph glyph-name="C" unicode="C" 
d="M365 -16c-83.333 0 -154.168 29.1689 -212.501 87.502s-87.5 128.833 -87.5 211.5v684c0 83.333 29.333 154.166 88 212.499s129.334 87.5 212.001 87.5c83.333 0 154 -29.333 212 -88s87 -129.334 87 -212.001v-143h-196v147c0 30 -10.667 55.667 -32 77s-47 32 -77 32
s-55.5 -10.667 -76.5 -32s-31.5 -47 -31.5 -77v-686c0 -30 10.5 -55.5 31.5 -76.5s46.5 -31.5 76.5 -31.5s55.667 10.5 77 31.5s32 46.5 32 76.5v173h196v-175c0 -83.333 -29.333 -154 -88 -212s-129 -87 -211 -87z" />
    <glyph glyph-name="D" unicode="D" horiz-adv-x="724" 
d="M659 300c0 -82.667 -29.001 -153.333 -87.001 -212s-128 -88 -210 -88h-297v1254h297c82.667 0 152.834 -29.333 210.501 -88s86.5 -129 86.5 -211v-655zM253.999 187.001h114c30 0 55.333 10.833 76 32.5s31 47.167 31 76.5v656c0 30 -10.5 55.667 -31.5 77
s-46.167 32 -75.5 32h-114v-874z" />
    <glyph glyph-name="E" unicode="E" horiz-adv-x="668" 
d="M65 0v1254h538v-189h-349v-343h255v-190h-255v-343h349v-189h-538z" />
    <glyph glyph-name="F" unicode="F" horiz-adv-x="668" 
d="M254 0h-189v1254h538v-189h-349v-343h255v-190h-255v-532z" />
    <glyph glyph-name="G" unicode="G" 
d="M365 -16c-83.333 0 -154.168 29.335 -212.501 88.002s-87.5 129 -87.5 211v684c0 83.333 29.333 154.166 88 212.499s129.334 87.5 212.001 87.5c83.333 0 154 -29.333 212 -88s87 -129.334 87 -212.001v-143h-196v147c0 30 -10.667 55.667 -32 77s-47 32 -77 32
s-55.5 -10.667 -76.5 -32s-31.5 -47 -31.5 -77v-686c0 -30 10.5 -55.5 31.5 -76.5s46.5 -31.5 76.5 -31.5s55.667 10.5 77 31.5s32 46.5 32 76.5v247h-105v189h301v-438c0 -83.333 -29.333 -154 -88 -212s-129 -87 -211 -87z" />
    <glyph glyph-name="H" unicode="H" horiz-adv-x="736" 
d="M255 531v-531h-190v1253h190v-532h226v532h190v-1253h-190v531h-226z" />
    <glyph glyph-name="I" unicode="I" horiz-adv-x="319" 
d="M254 0h-189v1253h189v-1253z" />
    <glyph glyph-name="J" unicode="J" horiz-adv-x="546" 
d="M481 284c0 -83.333 -29.165 -153.832 -87.498 -211.499s-128.833 -86.5 -211.5 -86.5c-48 0 -87 5 -117 15l27 176c21.333 -4 39.666 -6 54.999 -6c9.33301 -0.666992 22.666 -0.333984 39.999 0.999023c30.667 2 56.5 13 77.5 33s31.5 45 31.5 75v971h185v-967z" />
    <glyph glyph-name="K" unicode="K" horiz-adv-x="796" 
d="M255 396v-396h-190v1254h190v-447l230 447h202l-259 -513l303 -741h-222l-198 508z" />
    <glyph glyph-name="L" unicode="L" horiz-adv-x="645" 
d="M580 0h-515v1253h189v-1065h326v-188z" />
    <glyph glyph-name="M" unicode="M" horiz-adv-x="1007" 
d="M254 0h-189v1254h271l176 -899l169 899h261v-1254h-189v788l-164 -788h-152l-183 786v-786z" />
    <glyph glyph-name="N" unicode="N" horiz-adv-x="782" 
d="M278 1254l250 -842v842h189v-1254h-203l-260 803v-803h-189v1254h213z" />
    <glyph glyph-name="O" unicode="O" 
d="M364 1269c83.333 0 154.168 -29.333 212.501 -88s87.5 -129.334 87.5 -212.001v-684c0 -83.333 -29.333 -154.166 -88 -212.499s-129.334 -87.5 -212.001 -87.5c-83.333 0 -154 29.333 -212 88s-87 129.334 -87 212.001v684c0 83.333 29.333 154.166 88 212.499
s129 87.5 211 87.5zM467.002 973c0 30 -10.5 55.5 -31.5 76.5s-46.5 31.5 -76.5 31.5s-55.667 -10.5 -77 -31.5s-32 -46.5 -32 -76.5v-686c0 -30 10.667 -55.5 32 -76.5s47 -31.5 77 -31.5s55.5 10.5 76.5 31.5s31.5 46.5 31.5 76.5v686z" />
    <glyph glyph-name="P" unicode="P" horiz-adv-x="724" 
d="M363 1253c92 0 165.333 -28.999 220 -86.999c50.667 -55.333 76 -126 76 -212v-182c0 -82.667 -28.833 -153.334 -86.5 -212.001s-127.5 -88 -209.5 -88h-109v-472h-189v1253h298zM476 951.001c0 32.667 -9.83203 59 -29.499 79s-45.834 30 -78.501 30h-114v-401h114
c30 0 55.5 10.667 76.5 32s31.5 47 31.5 77v183z" />
    <glyph glyph-name="Q" unicode="Q" horiz-adv-x="761" 
d="M664 285c0 -54 -13.334 -104 -40.001 -150c16.667 -19.333 40.667 -29 72 -29v-176c-94.667 0 -159.334 29.667 -194.001 89c-42 -22.667 -87.667 -34 -137 -34c-83.333 0 -154.166 29.333 -212.499 88s-87.5 129.334 -87.5 212.001v684
c0 83.333 29.333 154.166 88 212.499s129.334 87.5 212.001 87.5c83.333 0 154 -29.5 212 -88.5s87 -129.5 87 -211.5v-684zM467.999 973c0 30 -10.667 55.5 -32 76.5s-47 31.5 -77 31.5s-55.5 -10.5 -76.5 -31.5s-31.5 -46.5 -31.5 -76.5v-686c0 -30 10.5 -55.5 31.5 -76.5
s46.5 -31.5 76.5 -31.5s55.667 10.5 77 31.5s32 46.5 32 76.5v686z" />
    <glyph glyph-name="R" unicode="R" horiz-adv-x="764" 
d="M363 1253c105.333 0 182.667 -28.999 232 -86.999c43.333 -50.667 65 -121.334 65 -212.001v-182c0 -88.667 -33.667 -163.667 -101 -225l140 -547h-204l-115 473c-5.33301 -0.666992 -11 -1 -17 -1h-109v-472h-189v1253h298zM476.001 951.001c0 72.667 -36 109 -108 109
h-114v-401h114c30 0 55.5 10.667 76.5 32s31.5 47 31.5 77v183z" />
    <glyph glyph-name="S" unicode="S" horiz-adv-x="755" 
d="M690 312c1.33301 -87.333 -21.332 -161.996 -67.999 -223.996c-30.667 -42 -74 -71.667 -130 -89c-30 -9.33301 -65 -14 -105 -14c-74 0 -135.333 18.333 -184 55c-40.667 30 -72.834 70.833 -96.501 122.5s-37.5 110.834 -41.5 177.501l180 13
c8 -72.667 27.333 -125.334 58 -158.001c22.667 -24.667 48.667 -36.334 78 -35.001c41.333 1.33301 74.333 21.666 99 60.999c12.667 19.333 19 47 19 83c0 52 -23.667 103.667 -71 155l-168 159c-62.667 60.667 -107 115 -133 163c-28 54 -42 112.667 -42 176
c0 114 38.333 200.333 115 259c47.333 35.333 106 53 176 53c67.333 0 125 -15 173 -45c37.333 -23.333 67.5 -56 90.5 -98s36.833 -90.333 41.5 -145l-181 -33c-5.33301 51.333 -20 91.333 -44 120c-17.333 20.667 -42.333 31 -75 31c-34.667 0 -61 -15.333 -79 -46
c-14.667 -24.667 -22 -55.334 -22 -92.001c0 -57.333 24.667 -115.666 74 -174.999c18.667 -22.667 46.667 -49.334 84 -80.001c44 -36.667 73 -62.334 87 -77.001c46.667 -46.667 82.667 -92.667 108 -138c12 -21.333 21.667 -41 29 -59c18 -44.667 27.333 -84.667 28 -120
z" />
    <glyph glyph-name="T" unicode="T" horiz-adv-x="720" 
d="M266 1064h-201v189h590v-189h-200v-1064h-189v1064z" />
    <glyph glyph-name="U" unicode="U" 
d="M364 -14c-83.333 0 -153.999 29 -211.999 87s-87 128.333 -87 211v969h185v-967c0 -30 10.667 -55.5 32 -76.5s47 -31.5 77 -31.5s55.5 10.5 76.5 31.5s31.5 46.5 31.5 76.5v967h197v-969c0 -84 -29.333 -154.667 -88 -212s-129.334 -86 -212.001 -86z" />
    <glyph glyph-name="V" unicode="V" horiz-adv-x="842" 
d="M289 0l-224 1253h198l157 -975l159 975h198l-228 -1253h-260z" />
    <glyph glyph-name="W" unicode="W" horiz-adv-x="1105" 
d="M842 1253h198l-196 -1253h-181l-107 684l-100 -684h-181l-210 1253h198l99 -671l91 671h198l99 -671z" />
    <glyph glyph-name="X" unicode="X" horiz-adv-x="827" 
d="M762 0h-203l-145 398l-146 -398h-203l246 630l-246 623h209l140 -387l139 387h209l-246 -623z" />
    <glyph glyph-name="Y" unicode="Y" horiz-adv-x="826" 
d="M318 525l-253 729h208l140 -450l139 450h209l-254 -729v-525h-189v525z" />
    <glyph glyph-name="Z" unicode="Z" horiz-adv-x="682" 
d="M617 1253v-189l-348 -876h348v-188h-552v188l349 876h-349v189h552z" />
    <glyph glyph-name="bracketleft" unicode="[" horiz-adv-x="448" 
d="M65 1332h318v-190h-128v-955h128v-188h-318v1333z" />
    <glyph glyph-name="backslash" unicode="\" horiz-adv-x="807" 
d="M65 1332h153l524 -1370h-154z" />
    <glyph glyph-name="bracketright" unicode="]" horiz-adv-x="447" 
d="M65 1333h317v-1334h-317v189h128v955h-128v190z" />
    <glyph glyph-name="asciicircum" unicode="^" horiz-adv-x="534" 
d="M313 1452l156 -351h-130l-71 171l-71 -171h-132l156 351h92z" />
    <glyph glyph-name="underscore" unicode="_" horiz-adv-x="1097" 
d="M65 -210v139h967v-139h-967z" />
    <glyph glyph-name="grave" unicode="`" horiz-adv-x="407" 
d="M65 1416h175l102 -287h-117z" />
    <glyph glyph-name="a" unicode="a" horiz-adv-x="813" 
d="M308 288l-46 -288h-197l213 1253h260l210 -1253h-198l-45 288h-197zM407 966l-70 -494h140z" />
    <glyph glyph-name="b" unicode="b" horiz-adv-x="767" 
d="M65 0l0.000976562 1254h283c74.667 0 142 -19.667 202 -59c51.333 -33.333 88 -85 110 -155c12 -37.333 18 -81.666 18 -132.999c0 -84 -22.333 -151.333 -67 -202c-18.667 -21.333 -40.667 -37.666 -66 -48.999c42 -16 77.667 -47.667 107 -95
c19.333 -32 33.666 -73.333 42.999 -124c4.66699 -26 7 -55 7 -87c0 -79.333 -15 -146.666 -45 -201.999c-23.333 -43.333 -56.333 -78 -99 -104c-48 -29.333 -95.667 -44 -143 -44h-350zM269.001 186.997h79c64 0 108.333 33 133 99c8.66699 22.667 13 48.667 13 78
c0 70 -13.333 121 -40 153c-24 29.333 -59.333 44 -106 44h-79v-374zM269.001 741.997l78.999 0.000976562c58.667 0 98 28.667 118 86c7.33301 21.333 11 47.666 11 78.999c0 52 -12.667 91.333 -38 118c-23.333 24.667 -53.666 37 -90.999 37h-79v-320z" />
    <glyph glyph-name="c" unicode="c" 
d="M365 -16c-83.333 0 -154.168 29.1689 -212.501 87.502s-87.5 128.833 -87.5 211.5v684c0 83.333 29.333 154.166 88 212.499s129.334 87.5 212.001 87.5c83.333 0 154 -29.333 212 -88s87 -129.334 87 -212.001v-143h-196v147c0 30 -10.667 55.667 -32 77s-47 32 -77 32
s-55.5 -10.667 -76.5 -32s-31.5 -47 -31.5 -77v-686c0 -30 10.5 -55.5 31.5 -76.5s46.5 -31.5 76.5 -31.5s55.667 10.5 77 31.5s32 46.5 32 76.5v173h196v-175c0 -83.333 -29.333 -154 -88 -212s-129 -87 -211 -87z" />
    <glyph glyph-name="d" unicode="d" horiz-adv-x="724" 
d="M659 300c0 -82.667 -29.001 -153.333 -87.001 -212s-128 -88 -210 -88h-297v1254h297c82.667 0 152.834 -29.333 210.501 -88s86.5 -129 86.5 -211v-655zM253.999 187.001h114c30 0 55.333 10.833 76 32.5s31 47.167 31 76.5v656c0 30 -10.5 55.667 -31.5 77
s-46.167 32 -75.5 32h-114v-874z" />
    <glyph glyph-name="e" unicode="e" horiz-adv-x="668" 
d="M65 0v1254h538v-189h-349v-343h255v-190h-255v-343h349v-189h-538z" />
    <glyph glyph-name="f" unicode="f" horiz-adv-x="668" 
d="M254 0h-189v1254h538v-189h-349v-343h255v-190h-255v-532z" />
    <glyph glyph-name="g" unicode="g" 
d="M365 -16c-83.333 0 -154.168 29.335 -212.501 88.002s-87.5 129 -87.5 211v684c0 83.333 29.333 154.166 88 212.499s129.334 87.5 212.001 87.5c83.333 0 154 -29.333 212 -88s87 -129.334 87 -212.001v-143h-196v147c0 30 -10.667 55.667 -32 77s-47 32 -77 32
s-55.5 -10.667 -76.5 -32s-31.5 -47 -31.5 -77v-686c0 -30 10.5 -55.5 31.5 -76.5s46.5 -31.5 76.5 -31.5s55.667 10.5 77 31.5s32 46.5 32 76.5v247h-105v189h301v-438c0 -83.333 -29.333 -154 -88 -212s-129 -87 -211 -87z" />
    <glyph glyph-name="h" unicode="h" horiz-adv-x="736" 
d="M255 531v-531h-190v1253h190v-532h226v532h190v-1253h-190v531h-226z" />
    <glyph glyph-name="i" unicode="i" horiz-adv-x="319" 
d="M254 0h-189v1253h189v-1253z" />
    <glyph glyph-name="j" unicode="j" horiz-adv-x="546" 
d="M481 284c0 -83.333 -29.165 -153.832 -87.498 -211.499s-128.833 -86.5 -211.5 -86.5c-48 0 -87 5 -117 15l27 176c21.333 -4 39.666 -6 54.999 -6c9.33301 -0.666992 22.666 -0.333984 39.999 0.999023c30.667 2 56.5 13 77.5 33s31.5 45 31.5 75v971h185v-967z" />
    <glyph glyph-name="k" unicode="k" horiz-adv-x="796" 
d="M255 396v-396h-190v1254h190v-447l230 447h202l-259 -513l303 -741h-222l-198 508z" />
    <glyph glyph-name="l" unicode="l" horiz-adv-x="645" 
d="M580 0h-515v1253h189v-1065h326v-188z" />
    <glyph glyph-name="m" unicode="m" horiz-adv-x="1007" 
d="M254 0h-189v1254h271l176 -899l169 899h261v-1254h-189v788l-164 -788h-152l-183 786v-786z" />
    <glyph glyph-name="n" unicode="n" horiz-adv-x="782" 
d="M278 1254l250 -842v842h189v-1254h-203l-260 803v-803h-189v1254h213z" />
    <glyph glyph-name="o" unicode="o" 
d="M364 1269c83.333 0 154.168 -29.333 212.501 -88s87.5 -129.334 87.5 -212.001v-684c0 -83.333 -29.333 -154.166 -88 -212.499s-129.334 -87.5 -212.001 -87.5c-83.333 0 -154 29.333 -212 88s-87 129.334 -87 212.001v684c0 83.333 29.333 154.166 88 212.499
s129 87.5 211 87.5zM467.002 973c0 30 -10.5 55.5 -31.5 76.5s-46.5 31.5 -76.5 31.5s-55.667 -10.5 -77 -31.5s-32 -46.5 -32 -76.5v-686c0 -30 10.667 -55.5 32 -76.5s47 -31.5 77 -31.5s55.5 10.5 76.5 31.5s31.5 46.5 31.5 76.5v686z" />
    <glyph glyph-name="p" unicode="p" horiz-adv-x="724" 
d="M363 1253c92 0 165.333 -28.999 220 -86.999c50.667 -55.333 76 -126 76 -212v-182c0 -82.667 -28.833 -153.334 -86.5 -212.001s-127.5 -88 -209.5 -88h-109v-472h-189v1253h298zM476 951.001c0 32.667 -9.83203 59 -29.499 79s-45.834 30 -78.501 30h-114v-401h114
c30 0 55.5 10.667 76.5 32s31.5 47 31.5 77v183z" />
    <glyph glyph-name="q" unicode="q" horiz-adv-x="761" 
d="M664 285c0 -54 -13.334 -104 -40.001 -150c16.667 -19.333 40.667 -29 72 -29v-176c-94.667 0 -159.334 29.667 -194.001 89c-42 -22.667 -87.667 -34 -137 -34c-83.333 0 -154.166 29.333 -212.499 88s-87.5 129.334 -87.5 212.001v684
c0 83.333 29.333 154.166 88 212.499s129.334 87.5 212.001 87.5c83.333 0 154 -29.5 212 -88.5s87 -129.5 87 -211.5v-684zM467.999 973c0 30 -10.667 55.5 -32 76.5s-47 31.5 -77 31.5s-55.5 -10.5 -76.5 -31.5s-31.5 -46.5 -31.5 -76.5v-686c0 -30 10.5 -55.5 31.5 -76.5
s46.5 -31.5 76.5 -31.5s55.667 10.5 77 31.5s32 46.5 32 76.5v686z" />
    <glyph glyph-name="r" unicode="r" horiz-adv-x="764" 
d="M363 1253c105.333 0 182.667 -28.999 232 -86.999c43.333 -50.667 65 -121.334 65 -212.001v-182c0 -88.667 -33.667 -163.667 -101 -225l140 -547h-204l-115 473c-5.33301 -0.666992 -11 -1 -17 -1h-109v-472h-189v1253h298zM476.001 951.001c0 72.667 -36 109 -108 109
h-114v-401h114c30 0 55.5 10.667 76.5 32s31.5 47 31.5 77v183z" />
    <glyph glyph-name="s" unicode="s" horiz-adv-x="755" 
d="M690 312c1.33301 -87.333 -21.332 -161.996 -67.999 -223.996c-30.667 -42 -74 -71.667 -130 -89c-30 -9.33301 -65 -14 -105 -14c-74 0 -135.333 18.333 -184 55c-40.667 30 -72.834 70.833 -96.501 122.5s-37.5 110.834 -41.5 177.501l180 13
c8 -72.667 27.333 -125.334 58 -158.001c22.667 -24.667 48.667 -36.334 78 -35.001c41.333 1.33301 74.333 21.666 99 60.999c12.667 19.333 19 47 19 83c0 52 -23.667 103.667 -71 155l-168 159c-62.667 60.667 -107 115 -133 163c-28 54 -42 112.667 -42 176
c0 114 38.333 200.333 115 259c47.333 35.333 106 53 176 53c67.333 0 125 -15 173 -45c37.333 -23.333 67.5 -56 90.5 -98s36.833 -90.333 41.5 -145l-181 -33c-5.33301 51.333 -20 91.333 -44 120c-17.333 20.667 -42.333 31 -75 31c-34.667 0 -61 -15.333 -79 -46
c-14.667 -24.667 -22 -55.334 -22 -92.001c0 -57.333 24.667 -115.666 74 -174.999c18.667 -22.667 46.667 -49.334 84 -80.001c44 -36.667 73 -62.334 87 -77.001c46.667 -46.667 82.667 -92.667 108 -138c12 -21.333 21.667 -41 29 -59c18 -44.667 27.333 -84.667 28 -120
z" />
    <glyph glyph-name="t" unicode="t" horiz-adv-x="720" 
d="M266 1064h-201v189h590v-189h-200v-1064h-189v1064z" />
    <glyph glyph-name="u" unicode="u" 
d="M364 -14c-83.333 0 -153.999 29 -211.999 87s-87 128.333 -87 211v969h185v-967c0 -30 10.667 -55.5 32 -76.5s47 -31.5 77 -31.5s55.5 10.5 76.5 31.5s31.5 46.5 31.5 76.5v967h197v-969c0 -84 -29.333 -154.667 -88 -212s-129.334 -86 -212.001 -86z" />
    <glyph glyph-name="v" unicode="v" horiz-adv-x="842" 
d="M289 0l-224 1253h198l157 -975l159 975h198l-228 -1253h-260z" />
    <glyph glyph-name="w" unicode="w" horiz-adv-x="1105" 
d="M842 1253h198l-196 -1253h-181l-107 684l-100 -684h-181l-210 1253h198l99 -671l91 671h198l99 -671z" />
    <glyph glyph-name="x" unicode="x" horiz-adv-x="827" 
d="M762 0h-203l-145 398l-146 -398h-203l246 630l-246 623h209l140 -387l139 387h209l-246 -623z" />
    <glyph glyph-name="y" unicode="y" horiz-adv-x="826" 
d="M318 525l-253 729h208l140 -450l139 450h209l-254 -729v-525h-189v525z" />
    <glyph glyph-name="z" unicode="z" horiz-adv-x="682" 
d="M617 1253v-189l-348 -876h348v-188h-552v188l349 876h-349v189h552z" />
    <glyph glyph-name="braceleft" unicode="{" horiz-adv-x="536" 
d="M164 1102c0 92.667 24.333 157.332 73 193.999c46 35.333 124 53 234 53v-131c-58 0 -97.333 -8 -118 -24s-31 -48.667 -31 -98v-268c0 -32 -8.33301 -63 -25 -93c-18 -32.667 -41 -54.667 -69 -66c26 -10 48.333 -31 67 -63c18 -29.333 27 -61.333 27 -96v-269
c0 -50 10.333 -82.667 31 -98s60 -23 118 -23v-131c-110 0 -188 17.667 -234 53c-48.667 36.667 -73 101.334 -73 194.001v193c0 69.333 -3 112.333 -9 129c-14 38 -44 58.667 -90 62v97c46 4 76 25 90 63c6 16 9 58.667 9 128v194z" />
    <glyph glyph-name="bar" unicode="|" horiz-adv-x="310" 
d="M65 1651h180v-1754h-180v1754z" />
    <glyph glyph-name="braceright" unicode="}" horiz-adv-x="536" 
d="M471 708v-96.998c-28.667 -2.66699 -48.667 -8.5 -60 -17.5s-21 -23.833 -29 -44.5c-4 -10.667 -6.66699 -26.667 -8 -48c-0.666992 -10 -1 -37 -1 -81v-193c0 -92.667 -24.667 -157.334 -74 -194.001c-44.667 -34.667 -122.667 -52 -234 -52v130
c58.667 0 98.167 7.66699 118.5 23s30.5 48 30.5 98v269c0 30.667 8.83301 62.167 26.5 94.5s40.167 53.833 67.5 64.5c-26 10.667 -48.167 31.667 -66.5 63s-27.5 63.333 -27.5 96v269c0 50 -10.167 82.667 -30.5 98s-59.833 23 -118.5 23v131c110 0 188 -17.667 234 -53
c49.333 -36.667 74 -101.334 74 -194.001v-194c0 -43.333 0.333008 -70 1 -80c2 -29.333 9 -54.333 21 -75s37.333 -32.667 76 -36z" />
    <glyph glyph-name="asciitilde" unicode="~" horiz-adv-x="742" 
d="M451 1388c15.333 -6.66699 29.334 -10.002 42.001 -10.002c24 0.666992 50.333 20.334 79 59.001l105 -78c-56.667 -76 -119.667 -112.667 -189 -110c-38.667 0.666992 -89.334 18.334 -152.001 53.001c-44.667 24.667 -75 37 -91 37c-22 0 -47 -18.333 -75 -55l-105 78
c54.667 74 116 109.667 184 107c31.333 -0.666992 66.333 -10.334 105 -29.001c32.667 -17.333 65 -34.666 97 -51.999z" />
    <glyph glyph-name="uni007F" horiz-adv-x="512" 
 />
    <glyph glyph-name=".null" horiz-adv-x="0" 
 />
    <glyph glyph-name="nonmarkingreturn" horiz-adv-x="130" 
 />
    <glyph glyph-name="ch128" horiz-adv-x="512" 
 />
    </font>
</defs>
</svg>
